燕子BT 教育网BT站 电影、综艺、学习资料分享

该种子由 qzhsjz(ID:5426463) 发布。发布者是普通用户,上传过3个种子,现有积分6911,没有被推荐的种子,没有被加入精华的种子,拥有鲜花5和啤酒瓶5,收到了鲜花0,被0个啤酒瓶砸到。给TA留言

上传信息

  • 标题:

    【4K极致超清】【2016】你的名字.君の名は.Kimi No Na Wa.BDRip.日语配音中文字幕

  • 类型:最新电影
  • 发布组:南区发布
  • 大小:3.46 GB
  • 上传时间:2017-10-2 11:11:00
  • 下载:
友荐云推荐
描述:

需要解释吗?需要解释吗?

General
Unique ID : 202593467133615210188499827850309213185 (0x986A151DFF898268A564CCA6B6371C01)
Complete name : D:\游戏与娱乐\二次元影视\Kimi No Na Wa.2160P-RUI.mkv
Format : Matroska
Format version : Version 4 / Version 2
File size : 3.46 GiB
Duration : 1 h 46 min
Overall bit rate : 4 642 kb/s
Encoded date : UTC 2017-08-11 04:16:06
Writing application : mkvmerge v13.0.0 ('The Juggler') 32bit
Writing library : libebml v1.3.4 + libmatroska v1.4.5

Video
ID : 1
Format : AVC
Format/Info : Advanced Video Codec
Format profile : High@L5.1
Format settings, CABAC : Yes
Format settings, ReFrames : 4 frames
Codec ID : V_MPEG4/ISO/AVC
Duration : 1 h 46 min
Bit rate : 3 979 kb/s
Width : 3 840 pixels
Height : 2 160 pixels
Display aspect ratio : 16:9
Frame rate mode : Constant
Frame rate : 23.976 (24000/1001) FPS
Color space : YUV
Chroma subsampling : 4:2:0
Bit depth : 8 bits
Scan type : Progressive
Bits/(Pixel*Frame) : 0.020
Stream size : 2.96 GiB (86%)
Title : 偷心某锐和Watcher制作
Writing library : x264 core 148 r2721+46 0c4b09a xiaowan [8-bit@all X86]
Encoding settings : cabac=1 / ref=4 / deblock=1:1:1 / analyse=0x3:0x133 / me=umh / subme=10 / psy=1 / fade_compensate=0.00 / psy_rd=0.30:0.00 / mixed_ref=1 / me_range=24 / chroma_me=1 / trellis=2 / 8x8dct=1 / cqm=0 / deadzone=21,11 / fast_pskip=1 / chroma_qp_offset=-2 / threads=12 / lookahead_threads=1 / sliced_threads=0 / nr=0 / decimate=1 / interlaced=0 / bluray_compat=0 / constrained_intra=0 / fgo=0 / bframes=3 / b_pyramid=2 / b_adapt=2 / b_bias=0 / direct=3 / weightb=1 / open_gop=0 / weightp=2 / keyint=240 / keyint_min=1 / scenecut=60 / intra_refresh=0 / rc_lookahead=60 / rc=crf / mbtree=1 / crf=23.5000 / qcomp=0.50 / qpmin=0:0:0 / qpmax=69:69:69 / qpstep=4 / ip_ratio=1.40 / aq=2:0.80 / aq-sensitivity=10.00 / aq-factor=1.00:1.00:1.00 / aq2=0 / aq3=0
Language : Japanese
Default : Yes
Forced : No
Color range : Limited
Matrix coefficients : BT.709

Audio
ID : 3
Format : AAC
Format/Info : Advanced Audio Codec
Format profile : LC
Codec ID : A_AAC
Duration : 1 h 46 min
Bit rate : 175 kb/s
Channel(s) : 2 channels
Channel positions : Front: L R
Sampling rate : 48.0 kHz
Frame rate : 46.875 FPS (1024 spf)
Compression mode : Lossy
Stream size : 133 MiB (4%)
Title : 日语
Language : Chinese
Default : Yes
Forced : No

Text
ID : 2
Format : PGS
Muxing mode : zlib
Codec ID : S_HDMV/PGS
Codec ID/Info : Picture based subtitle format used on BDs/HD-DVDs
Duration : 1 h 45 min
Bit rate : 954 kb/s
Count of elements : 16842
Stream size : 721 MiB (20%)
Title : 中日双语特效字幕(某锐和DiaosMan共同制作)
Language : Chinese
Default : Yes
Forced : No

转帖请注明转自【燕子BT站】http://www.54new.com 打开微信

分享到: 更多

评论

1楼:qzhsjz(吉林省长春市吉***)(2017-10-3 16:35):我可想知道怎么申精了……
2楼:千殇不伤(吉林大学前卫南区计***)(2017-10-12 15:25):加燕子那个群 给群主说

文件信息(仅供参考)

本文件由 BitComet/1.47 于 2017-10-02 11:06:31 生成。

文件列表如下(最多显示50个文件):

Kimi No Na Wa.2160P-RUI.mkv3.46 GB

友情链接 牡丹园BBS 吉大之光 打开微信
版权所有©燕子网络 联系我们: admin@54new.com   广告合作 免责声明 免备案VPS,新用户免费送20美元
沪ICP备13005076号